Motown Flac
Explore releases from the The Complete Motown Singles label. The Very Best Of Marvin Gaye Flac Torrent >>> DOWNLOAD. Christine Elizabeth Clark (born February 1, 1946), better known as Chris Clark, is an American soul, jazz, and blues singer, who recorded for Motown Records. Joint and a Shot 4. Sexual Healing 9. Discover, listen and buy the latest Motown MP3 downloads online from zdigital Australia - Choose from more than 19 million high quality DRM-free music tracks in our store. - Duration: 10:50. Stevie Wonder - Can't Do Without Your Love 02:5003. 1 kHz (Tracks) Artist: Various Artists. 1 kHz (Tracks) Artist: Various Artists Title: Motown Meets The Beatles Released: 1995 Style: Soul, Funk, R&B RAR Size: 380 Mb Tracklist: 1. Motown Greatest Hits (2019) MP3 Driven By The 60s: 100 Essential Driving Songs (5CD) (2019) Flac Todd Rundgren - The Complete Bearsville Albums Collection (13CD Box) (2016) Flac. Written and produced by Motown's main production team Holland-Dozier-Holland, the song was the group's first Motown single and their first pop Top 20 hit, making it to number eleven on the Billboard Hot 100 in the fall of 1964. LATEST EPISODES: Episode 75. 47gb | FLAC (separate files) ALL THE MOTOWN SINGLES FROM 1959 thru 1971 This 4-CD box set contains a 68-page booklet featuring artist biographies, track-by-track annotations, a historical Motown timeline, musician credits, rare photos and memorabilia from the Motown archives. Download VA - Motown Greatest Hits (3CD, 2019) Flac or any other file from Music category. Baby, It's You 13. Preview, buy and download high-quality music downloads of Hello World - The Motown Solo Collection by Michael Jackson from 7digital United Kingdom - We have over 30 million high quality tracks in our store. The Supremes / Baby Love / The Collection Жанр: Soul, R&B, Pop/Rock, Motown Страна-производитель диска: UK Год издания: 2012 Издатель (лейбл): Spectrum Music Номер по каталогу: SPEC2086 Страна: USA Аудиокодек: FLAC (*. Walker The All Stars”) which has only ever been released in its entirety in UK and Europe, all six making their debut on CD worldwide with this 2019 SoulMusic Records’ release. This item: 101 Motown Anthems / Various by VARIOUS ARTISTS Audio CD $9. 12A 1972 (2013) + flac 14 Days Free Access to USENET! Free 300 GB with Full DSL-Broadband Speed!. Motown, The Complete No. Kenny Hawkins is tearing it up on lead. MOTOWN MAGIC follows Ben, a wide-eyed eight-year-old with a big heart and an amazing imagination, who uses his magic paintbrush to bring the street-art decorating his city, Motown, to life. 48MB The Complete Motown Singles Volume 03 (1963) Disc. 1's Disc3\19 - I'll Be There. 2017 registriert haben, können sich mit den ihnen bekannten Zugangsdaten einloggen. Get Ready - The Temptations 2. Thirty-seven of their singles reached the Billboard Top 40 in the US, with four of them reaching #1. 9 Votes: 476 Other formats: APE WMA AAC DMF AUD DTS. Boomkat Limited Second Floor, Swan Building 20 Swan Street Manchester M4 5JW United Kingdom Tel: +44 (0) 161 832 2565 [email protected] 6MHz/128fs Download DSD (Quad Rate) 11. flac" WAVE TRACK 19 AUDIO TITLE "I'll Be There" PERFORMER "The Jackson 5" INDEX 01 00:00:00. 36 MB Blue-eyed soul crooner Michael McDonald gave his career a much-needed shot in the arm with 2003's Motown, a commercially well-received collection that matched the one-time Doobie Brother and '80s solo star's rich vocals. 04:15 You Are My Lady. Available in Audiophile 96kHz/24bit. Regular mp3s are dominating the market and it's pretty hard to find music in Lossless (FLAC) format. The singer's fourth and final album for Motown, IT MUST BE MAGIC--her second fully self-written, self-produced effort--oversaw Marie's true creative emancipation. VA - The Complete Motown Singles - Vol. FLAC 16 bit / Soul / Funk / RnB / Collection Best Hits 1-11-2019, 03:10 589 0 aleXs All albums Various Motown Quality: FLAC 16 bit / 44. flac" WAVE TRACK 18 AUDIO TITLE "Ain't No Mountain High Enough" PERFORMER "Diana Ross" INDEX 01 00:00:00 FILE "Various\MOTOWN - The Complete NO. Mary Wells - I Don't Want To Take A Chance 4. 8 Avalable Formats: ASF AC3 AHX MP3 MP4 DMF Category: R&B Style:- Duration:- Recording Date:- Recording Location:- Release Date:-. LiveMJHighDefinition 4,200,982 views. Various - Tamla Motown Serie Discoteca Vol. 磁力文件Kim Weston - The Motown Anthology (2005) [flac]创建于2019-06-08,大小为804. | 1,5 Gb Label: Motown Records / Hip-O Select (USA) | Cat. Diana Ross - All The Great Hits [Motown 1965-1981, 320 kbps]. Album The Complete Motown Singles - Vol. This item: 101 Motown Anthems / Various by VARIOUS ARTISTS Audio CD $9. Christine Elizabeth Clark (born February 1, 1946), better known as Chris Clark, is an American soul, jazz, and blues singer, who recorded for Motown Records. VA - Motown: The Early Years 1959-62 (2020)(Flac) kaschi. Music lossless for lovers of good sound Tags: Swing Rhythm and Blues. 13MB ) Motown Singles - CD58-19 - King Floyd - Together We Can Do Anything. Diana Ross & The Supremes - Farewell download flac; Diana Ross And The Supremes - Reflections download flac. The 3CD version of the album features legendary Motown artists including The Supremes, Marvin Gaye, Temptations, Four Tops, Stevie Wonder, Diana Ross, The Jackson 5 and Lionel Richie. 34:54 I Heard It. In an inspired set taking in smoldering ballads, introspective singer-songwriter-style material, and vibrant dance floor numbers, her versatility is evident throughout. Thirty-seven of their singles reached the Billboard Top 40 in the US, with four of them reaching #1. 1 kHz (Tracks) Artist: Various Artists. Paying supporters also get unlimited streaming via the free Bandcamp app. Baby, I Love You 5. Motown Greatest Hits (2019) MP3 Driven By The 60s: 100 Essential Driving Songs (5CD) (2019) Flac Todd Rundgren - The Complete Bearsville Albums Collection (13CD Box) (2016) Flac. cc, extratorrent ag, extratorrent. Motown Brown by Shayk, released 31 July 2016 Includes high-quality download in MP3, FLAC and more. 74MB; The Complete Motown Singles - [ANT] 13. 1 kHz (Tracks) Artist: Various Artists. Tracklist:. The selections on this compilation were transferred from the original single mixes, which were mixed for AM radio play and 45 RPM singles. Vinyl and CD 1 - 14 of 14. ERYKAH BADU - Mama's Gun [2000] Motown / FLAC (tracks+. Yesterday - Marvin Gaye 6. Ain't No Woman (Like The One I Got) 3. # DOWNLOAD LINK: megafile3. Discover what's missing in your discography and shop for The Complete Motown Singles releases. Various - Tamla Motown 45 - latest mp3, flac album version. The Complete Motown Singles, Vol. Year Of Release: 2019 Format: Flac, Tracks Bitrate: lossless, 24bit Sample Rate: 48000Hz Audio Channels: 2. 12A 1972 (2013) + flac 14 Days Free Access to USENET! Free 300 GB with Full DSL-Broadband Speed!. Marketplace 150 For Sale. My World Is Empty Without You (03:06) 02. Christine Elizabeth Clark (born February 1, 1946), better known as Chris Clark, is an American soul, jazz, and blues singer, who recorded for Motown Records. Motown Greatest Hits Year Of Release: 2019 Genre: Soul Format: Flac, Tracks +. Regular mp3s are dominating the market and it's pretty hard to find music in Lossless (FLAC) format. Here I Am Baby (02:49). The Miracles - Shop Around - The Miracles 3. 84 GB (ISO) + 3. The company was incorporated in Detroit on January 12, 1959 under the name Tamla Records. Motown Album Discography, Part 1 (1961-1981) by David Edwards and Mike Callahan Last update: August 7, 2012 The first two dozen albums (600-624), have been originally issued — with only a few exceptions — with either the car logo or Motown rectangular logo (see below) on the front of the record jacket. 8 Avalable Formats: ASF AC3 AHX MP3 MP4 DMF Category: R&B Style:- Duration:- Recording Date:- Recording Location:- Release Date:-. VA - The Complete Motown Singles - Vol. 1 kHz Tracklist: 01. In Our Small Way - 03:41 5. Hitsville USA: The Motown Singles Collection 1959–1971 is a 1992 four-CD collection of Motown hits, during Motown's golden age when the songs were recorded at its original Detroit studio. We Can Work It Out - Stevie Wonder. com - Available in 96 kHz / 24-bit AIFF, FLAC high resolution audio formats,. 1 GB | Covers included | 05:53:15 Genre: Soul, R&B, Funk, Disco | Label: Spectrum Music / Universal 101 Motown Anthems Various Artists INCLUDING The Jackson 5, The Supremes, Martha & the Vandellas, Marvin Gaye, Diana Ross, The Isley Brothers, Smokey Robinson & the Miracles, The Four Tops, Stevie Wonder, The. C) Motown a Division of UM. The Supremes - Where Did Our Love Go (02:31) 02. Marvin Gaye – Hitsville: The Making Of Motown (Original Motion Picture Soundtrack / Deluxe) 24 bit Hi-Res. His pedigree is gloriously-evident as he opens with. 0 beta 1 from 15. Marketplace 150 For Sale. The singer's fourth and final album for Motown, IT MUST BE MAGIC--her second fully self-written, self-produced effort--oversaw Marie's true creative emancipation. The Supremes - For Once In My Life (02:53) 02. Christine Elizabeth Clark (born February 1, 1946), better known as Chris Clark, is an American soul, jazz, and blues singer, who recorded for Motown Records. Picking up where the first volume of Hip-O Select's monumental The Complete Motown Singles series left off, Vol. 1kHz Audio Channels: 2. Motown Junkies presents "Discovering Motown" a Motown radio show. This superb box set spanning the years 1970-1976 features five original Motown albums and one album (1974's "Jr. Mary Wells - I Don't Want To Take A Chance 4. Artist: Various ArtistsAlbum: Motown Unreleased 1969 Label: UNI - MOTOWNReleased: 2019Genre: R&BCountry: WorldDuration: 03:15:06Tracklisting:01. Shop Around - The Miracles 5. Mary Wells - I'm So Sorry 5. VA - Motown 50° Greatest Hits Collection - Kings Of Soul (2009) FLAC VA - Motown 50° Greatest Hits Collection - Let's Dance (2009) FLAC Marvin Gaye - The Best Of Marvin Gaye Volume 2: The 70's (2000) FLAC. Let's Stay Together 2. com - Available in 192 kHz / 24-bit AIFF, FLAC high resolution…. FLAC (CD RIP) Motown Greatest Hits (2019) Style: Soul Release Date: 2019 RAR / ZIP Size: 485 MB Flac. Magic at the Musicals. You Are My Lady 12. February 2011, 15:48 Michael Jackson & Jackson 5 / The Motown Years CD1. The Four Tops x Damian Marley - Standing In the Shadows All Night Blended by Maitre D. Ne-Yo - Another Kind Of Christmas (2019) {Compound Entertainment/Motown} EAC Rip | FLAC | scans | 235 mb MP3 CBR 320 kbps | RAR | 83 mb Genre: Christmas, soul, R&B. Directed by Spike Lee. We Can Work It Out - Stevie Wonder. Mix - [HQ-FLAC] Michael Jackson - Billie Jean YouTube. 14:25 Ain't No Woman (Like The One I Got) 20:40 Inner City Blues. Performer: Various Artists Title: Now That's What I Call Motown! Style: Motown,Pop-Soul,Soul,Urban,Funk Duration: 01:18:08 Relesed: January 13, 2009 Rating: 4. Each 11-minute episode incorporates a plotline inspired by the themes and characters of a classic Motown song, and an original version of that song covered. "Freak Flag". Another Kind Of Christmas is the first Christmas album by soul vocalist Shaffer Chimere Smith, who is better known under the mononym Ne-Yo. Tracklist: Disc 1: 1 End Of The RoadBoyz II Men 2 Isn't She LovelyStevie Wonder 3 HelloLionel Richie 4 Where Is The LoveRita Wright 5 How Sweet It Is (To Be Loved By You)Marvin Gaye 6 I Second That EmotionSmokey Robinson & The Miracles 7 Remember MeDiana Ross. We are delighted to offer every volume of the Complete Motown Singles CD Box sets from the recent collection that we are processing. We Can Work It Out - Stevie Wonder 4. VA - The Complete Motown Singles - Vol. Ivy Jo - It's Love I Need. This article presents the discography of Motown group The Temptations. 15 submissions pending; Share. VA - Motown Greatest Hits (3CD, 2019) Flac tracks | 3:31:50 | 1,3 Gb Genre: Funk, Soul, R&B / Label: Universal Music 2019 marks the 60th year of MOTOWN, widely regarded as the greatest, most successful and best loved record label in music and to commemorate this landmark anniversary Motown will be issuing a brand new Greatest Hits compilation featuring 60 tracks from across their enormously. ZIP, RAR archives download free. 0 Total Size: 1. I Wanna Be Where You Are - 03:02 3. VA - Motown Greatest Hits (2019) [FLAC] [DJ] , extratorrent, extratorrents, extratorrent. Disc 1: 1 End Of The RoadBoyz II Men 2 Isn't She LovelyStevie Wonder 3 HelloLionel Richie 4 Where Is The LoveRita Wright 5 How Sweet It Is (To Be Loved By You)Marvin Gaye. 🎧 Motown Jazz Playlist 🎧 00:00 Let's Stay Together. Various - Tamla Motown Serie Discoteca Vol. During this time, the group recorded more hit singles, including "I Feel a Song (In My Heart)", "Part-Time Love", "Love Finds Its Own Way" and the live recording, "The Way We Were/Try to Remember". 1's Disc3\19 - I'll Be There. Let's Get It On 6. 1's Disc3\18 - Ain't No Mountain High Enough. 60MB [Polaris 0092] Patti Page - The Complete Columbia Singles 1962-1970 (2013) 2CDs [FLAC] 537. 12A: 1972, the Four Tops sing "L. His pedigree is gloriously-evident as he opens with. Artist: Mary Wells Title: The Early Years: Complete Motown Releases 1960-62 Year Of Release: 2019 Label: Acrobat Records Genre: Soul, RnB, Pop Quality: FLAC (tracks) Total Time: 00:58:51 Total Size: 280 MB 1. Dancing In The Street - Martha The Vandellas 3. 3 Popular music albums MP3 and FLAC download free. All music Various Motown. Stevie Wonder - Can't Do Without Your Love 02:5003. Hobos Locos! by Motown Stompers, released 10 November 2015 1. Michael McDonald - Motown (2003) [2. Released May 17, 2019 A Motown Records Release; This Compilation ℗ 2019 UMG Recordings, Inc. 1's (10CD Box Set) - 2008 (FLAC). Two songs into The Complete Motown Singles, Vol. Diana Ross & The Supremes With The Temptations - A Bit Of Liverpool / TCB download mp3 flac Various - A Motown Anniversary Collection download mp3 flac Various - Every Great Motown Song: The First 25 Years As Originally Recorded download mp3 flac Rock music. Motown Greatest Hits Year Of Release: 2019 Genre: Soul Format: Flac, Tracks +. It was his last album on the Gordy Records imprint of Motown Records. 9: 1969 by Various Artists in mp3, FLAC, ogg, zip album and other supported formats. Various - Top 10 With A Bullet! Motown Love Songs / Motown Dance! album mp3 flac. This Masquerade 7. 1 1959-1971 [4 CD] (1992) FLAC Essential Rare Grooves (2018) FLAC The Doobie Brothers) - Motown 2 (2004) SACD + Hi-Res. cue / 100% log Bitrate: lossless Sample Rate: 16bit/44. Thirty-seven of their singles reached the Billboard Top 40 in the US, with four of them reaching #1. Скачивай торрент VA - Motown Greatest Hits (3CD) (2019) FLAC - Бесплатно и без регистрации!. Michael McDonald - Motown (2003) [2. Format: VBR V0 MP3, FLAC [View Comments To Listen] Following Second To Nunn in 1983 comes Private Party, singer/songwriter Bobby Nunn's sophomore effort for Motown Records. 1 kHz (Tracks) Artist: Various Artists. HTTP download also available at fast speeds. 47gb | FLAC (separate files) ALL THE MOTOWN SINGLES FROM 1959 thru 1971 This 4-CD box set contains a 68-page booklet featuring artist biographies, track-by-track annotations, a historical Motown timeline, musician credits, rare photos and memorabilia from the Motown archives. Hard Day's Night - The Supremes 2. Everything Is Good About You (03:28) 04. Stubborn Kind Of Fellow - Marvin Gaye 6. 1 > 1-bit/2. Hard Day's Night - The Supremes 2. A couple of years later, the name was changed. 36 MB Blue-eyed soul crooner Michael McDonald gave his career a much-needed shot in the arm with 2003's Motown, a commercially well-received collection that matched the one-time Doobie Brother and '80s solo star's rich vocals. Year Of Release: 2019 Genre: R&B Format: Flac, Tracks Bitrate: lossless, 24bit Sample Rate: 96000Hz Audio Channels: 2. Baby, I Love You 5. 18 The Tears Of A Clown (Single Version - Mono). Singer: Commodores / Lionel Richie Title: Definitive Motown Collection MP3 RAR archive size: 1868 mb FLAC RAR archive size: 1432 mb Rating: 4. Rockin' Robin. | 1,5 Gb Label: Motown Records / Hip-O Select (USA) | Cat. Diana Ross - The Motown Anthology (2001) (Original Recording Remastered) FLAC EAC rip | 2CD | FLAC-image - Log - Cue | Full Scans | Release: 2001 | 1. Soul! - The Very Best Of Motown [4 CD set] Soul! - The Very Best Of Motown (4 CD set) CD1----- 01 - The Marvelettes - Too Many Fish In The Sea. GD 58 CD 1 01 - Isn't She Lovely. Motown Greatest Hits Year Of Release: 2019 Genre: Soul Format: Flac, Tracks +. Motown by Smooth Jazz Sax Instrumentals, released 24 February 2010 1. Hallelujah I Love Her So 2. Michael Jackson - Billie Jean - Live Munich 1997 - HD. Motown, The Complete No. Mary Wells - I Don't Want To Take A Chance 4. 0 Total Size: 3. cue / 100% log Bitrate: lossless Sample Rate: 16bit/44. The original motion picture soundtrack to the Showtime documentary film "Hitsville: The Making of Motown" features remastered audio. Paying supporters also get unlimited streaming via the free Bandcamp app. flac 05 - You've Lost That Lovin' Feelin'. Budgey Mel 9. Motown Edits Volume 2 by Maitre D, released 25 March 2020 1. Vinyl and CD 1 - 14 of 14. Various Artists - Motown Love Released: 2009 Genre: R&B, Soul Bitrate: MP3 320 KBPS. 68 MB - VA - Motown Christmas 2008 CD1 [EAC-FLAC](oan) - 01 - Wonder, Stevie - What Christmas Means To Me. Stevie Wonder - Can't Do Without Your Love 02:5003. HTTP download also available at fast speeds. Artist: Mary Wells Title: The Early Years: Complete Motown Releases 1960-62 Year Of Release: 2019 Label: Acrobat Records Genre: Soul, RnB, Pop Quality: FLAC (tracks) Total Time: 00:58:51 Total Size: 280 MB 1. All tracks composed by Rick James. 1 kHz (Tracks) Artist: Various Artists. Northern Soul 101 Hits - Motown On 5 CDs 2018 [Flac-Lossless] Uploaded 09-26 2018, Size 1. 1: 1959-1961. Released May 17, 2019 A Motown Records Release; This Compilation ℗ 2019 UMG Recordings, Inc. 101 70s Hits / Various by VARIOUS ARTISTS Audio. 6MHz/128fs Download DSD (Quad Rate) 11. To immediately find what you need to enter a keyword in the form below. With Michael Jackson, Jackson 5, Berry Gordy, Suzanne De Passe. ag, download, bittorrent, torrent, torrents. During this time, the group recorded more hit singles, including "I Feel a Song (In My Heart)", "Part-Time Love", "Love Finds Its Own Way" and the live recording, "The Way We Were/Try to Remember". The Elgins - The Motown Anthology (2007) FLAC Dionne Warwick - Collection 1963-1977 (23 Albums Mini LP CD Remastered) (2013) FLAC La Soul C'etait Mieux Avant (5CD) (2017) FLAC. 12A: 1972 Disc 1 01:13:18 343,54 MB 01. Quality: FLAC 16 bit / 44. Ivy Jo - It's Love I Need. flac 05 - You've Lost That Lovin' Feelin'. This item: 101 Motown Anthems / Various by VARIOUS ARTISTS Audio CD $9. Various - Motown Hits Of Gold Vol. Sexual Healing 9. Northern Soul 101 Hits - Motown On 5 CDs 2018 [Flac-Lossless] Uploaded 09-26 2018, Size 1. The Flag is a 1986 Rick James album. Ne-Yo - Another Kind Of Christmas (2019) {Compound Entertainment/Motown} EAC Rip | FLAC | scans | 235 mb MP3 CBR 320 kbps | RAR | 83 mb Genre: Christmas, soul, R&B. Total Size: 3. All music Various Motown. Exact Audio Copy V1. Rockin' Robin. 04:15 You Are My Lady. One of the most dominating forces in the history of popular music, the Motown imprint was more than a label, it was a juggernaut of soul music, a machine so finely honed and working with such efficiency that it wasn’t uncommon for several chart topping hits to be recorded in one session. and incorporated as Motown Record Corporation in Detroit, Michigan, United States, on April 14, 1960. Message To Michael (02:51) 03. 1]PS3 Rip | ISO | DST 64 2. The Jackson 5 x The Violent Femmes - I Want You Back (Maitre D's Blister Edit) 2. Hitsville USA: The Motown Singles Collection 1959–1971 is a 1992 four-CD collection of Motown hits, during Motown's golden age when the songs were recorded at its original Detroit studio. Profile: Series Parent Label: Hip-O Select [l559336] Label. Walk In The Night: The Motown 70s Studio Albums by Jr. MP3 320 | FLAC(tracks) | 2h 12 min | Genre: Pop, RB, Soul | 311 881 MB Disc: 1 1. You Are My Lady 12. 06MB ) Motown Singles - CD16-27 - Marvin Gaye - When I'm Alone I Cry. The Complete Motown Singles. A decade earlier, Motown dipped their toe in the water with the jumbled Back to Front, which tried desperately to camouflage its nature as a comp with three new songs, which, at 14 tracks, hurt the hit quotient dramatically. 02 - The Contours - Do You Love Me. 12A 1972 (2013) + flac 14 Days Free Access to USENET! Free 300 GB with Full DSL-Broadband Speed!. Motown - Best of Motown album mp3 flac Soul. The album also features material from. VA - Hitsville The Making Of Motown (2CD, 2019) FLAC tracks / MP3 320 kbps | 1:41:14 | 234 / 555 Mb Genre: Classical Soundtrack / Label: Universal Music Hitsville - The Making of Motown tells the remarkable story of the legendary Motown Records through new and exclusive interviews with the label's visionary founder, Berry Gordy, and many of its superstar artists and creative figures, as. The PBS version? Will this "exclusive" version be available through Hip-O Select? I don't have television! I bought a PBS box through Rhino Handmade, the worthwhile three-disc set, ROCK RHYTHM & DOO WOP VOLUME 2, which was a good collection of tracks I didn't have on CD; the first volume was more a hodge-podge of the obvious and, for most music collectrs, redundant. From the 1986 album The Flag. Soul! - The Very Best Of Motown [4 CD set] Soul! - The Very Best Of Motown (4 CD set) CD1----- 01 - The Marvelettes - Too Many Fish In The Sea. All In Love is Fair 4. Disc 1: 1 End Of The RoadBoyz II Men 2 Isn't She LovelyStevie Wonder 3 HelloLionel Richie 4 Where Is The LoveRita Wright 5 How Sweet It Is (To Be Loved By You)Marvin Gaye. Marvin Gaye - Hitsville: The Making Of Motown (Original Motion Picture Soundtrack / Deluxe) 24 bit Hi-Res. Request for ceee43 Stevie Wonder - Part-Time Lover (Vinyl 12″ Single - 1985) https://mega. The Classic Of Diana Ross flac download Diana Ross & The Supremes - Diana Ross & The Supremes flac download Diana Ross - Diana's Duets flac download Various - Love Motown flac download. Hitsville USA: The Motown Singles Collection 1959–1971 is a 1992 four-CD collection of Motown hits, during Motown's golden age when the songs were recorded at its original Detroit studio. 13MB ) Motown Singles - CD16-25 - The Hornets - She's My Baby. 15 submissions pending; Share. cue, log-file) Quality: Lossless Total Size: 2,08 gb TRACKLIST: CD 1 01 - Supremes - Baby Love 02 - Martha Reeves & The Vandellas - Dancing In The Street. Rockin' Robin. 84 GB (ISO) + 3. Highlighting the founding years of Motown, the album celebrates icons such as The Temptations, Marvin Gaye, Smokey Robinson & the Miracles, The Supremes, Martha Reeves & The Vandellas, Stevie Wonder, and more. VA - Motown The Musical Originals - 40 Classic Songs That Inspired The Broadway Show! (2015) FLAC/MP3; VA - The Motown Story (2006) VA - Motown The Musical: 40 Classic Songs That Inspired the Musical! (2016) VA - Motown Classics Gold (2005) VA - Hitsville The Making Of Motown (2CD, 2019) Various Artists - Motown Greatest Hits (2019). 2 covers 1962, when Motown was beginning to gain momentum but had not yet turned into the hitmaking machine it would be in just a short year. Michael McDonald never disguises what his seventh solo album is: the title Motown makes it clear that this 2003 effort is a tribute to the glory days of Berry Gordy’s Detroit empire. 23GB The Drifters - First Loves The Complete Drifters Singles 1972-1980 2CD (2010)[FLAC] 700. 3 flac download Various - Motown's Biggest Pop Hits: All #1 On Billboard's Charts flac download Diana Ross - Free Soul. Preview, buy and download high-quality music downloads of Hello World - The Motown Solo Collection by Michael Jackson from 7digital United Kingdom - We have over 30 million high quality tracks in our store. Diana Ross & The Supremes - Farewell download flac; Diana Ross And The Supremes - Reflections download flac. The label and its various subsidiaries were beginning to gel, beginning to polish what would become immediately identifiable as the Motown. Release Name: VA-Motown_Greatest_Hits-3CD-FLAC-2019-401 Artist: VA Album: Motown Greatest Hits Genre: Soul Year: 2019 Tracks: 19 Duration: 03:28:45 Size: 1. Regular mp3s are dominating the market and it's pretty hard to find music in Lossless (FLAC) format. Hard Day's Night - The Supremes 2. It is a complete listing of all their singles and albums. FILE "Various\MOTOWN - The Complete NO. Fans of Motown, The Doobie Brothers, and of course, Michael McDonald will love, “Motown”. Edit Label ; Data Quality Rating: Needs Vote. 2: 1962 - Various Artists on AllMusic - 2005 - Picking up where the first volume of Hip-O…. HITSVILLE USA THE MOTOWN SINGLES COLLECTION 1959 - 1971 [Box Set 4 CD] Artistes: Compilation Format: FLAC Durée: 05:03:51 Label: Motown Date de sortie: 1992 Genre: Soul Hitsville USA, The Motown Singles Collection 1959-1971 De 1959, année de sa création, à 1971, date clé dans l'histoire du label marquée par son déménagement de Detroit à Los Angeles (un autre coffret, Hitsville USA. Walk In The Night: The Motown 70s Studio Albums by Jr. Ain't No Mountain High Enough" is an R&B/soul rock song written by Nickolas Ashford & Valerie Simpson in 1966 for the Tamla label, a division of Motown. 16 GB | 3% RAR Recovery Label: Universal / Motown | Ukraine | Cat#: 0602498632260 | Genre: R&B. top/file/Chuck Jackson - Motown Rarities (2020) Flac. Motown Greatest Hits (3CD Box Set) (2019) FLAC Genres: FLAC 16 bit / Soul / Funk / RnB / Collection Best Hits 1-11-2019, 03:10 593 aleXs All music Various Motown. Download album by Michael McDonald - Motown Two (2004) SACD-R. The Supremes - Where Did Our Love Go (02:31) 02. Format: VBR V0 MP3, FLAC [View Comments To Listen] Following Second To Nunn in 1983 comes Private Party, singer/songwriter Bobby Nunn's sophomore effort for Motown Records. This article presents the discography of Motown group The Temptations. 5/5 Votes: 422 Format: MP3 FLAC MOD AAC DXD MP3 AIFF AHX MP1. Tracklist:. and incorporated as Motown Record Corporation in Detroit, Michigan, United States, on April 14, 1960. flac" WAVE TRACK 18 AUDIO TITLE "Ain't No Mountain High Enough" PERFORMER "Diana Ross" INDEX 01 00:00:00 FILE "Various\MOTOWN - The Complete NO. Michael McDonald never disguises what his seventh solo album is: the title Motown makes it clear that this 2003 effort is a tribute to the glory days of Berry Gordy’s Detroit empire. 0 beta 1 from 15. Papa's Gotta Brand new Bag 8. 1's Disc3\18 - Ain't No Mountain High Enough. Download Motown Unreleased: 1969 by Various Artists in high-resolution audio at ProStudioMasters. Aprovado Jovem Pan Vol 3 Label: Mercury - 553 571-2, PolyGram - 553 571-2 Series: Aprovado Jovem Pan Format: CD, Compilation Country: Brazil Released: 1997. I'm Not The Only One by Sam Smith. Marvin Gaye – Hitsville: The Making Of Motown (Original Motion Picture Soundtrack / Deluxe) 24 bit Hi-Res. 0 beta 1 from 15. All music Various Motown. 0 Tracklist: 01. Move On Up 5. 0) XLD extraction logfile from 2012-04-18 14:47:28 +0000 Various Artists / Motown 50 Greatest Hits Collection (Vol. top/file/Chuck Jackson - Motown Rarities (2020) Flac. Year Of Release: 2019 Format: Flac, Tracks Bitrate: lossless, 24bit Sample Rate: 48000Hz Audio Channels: 2. # DOWNLOAD LINK: megafile3. Also available in the iTunes Store. Great collection of 60s Tamla Motown - but not sure what Spectrum have done (or not done)? I would question the source material used for these CDs and the (very) soft levels are all over the place which greatly reduces the listening pleasure. 8MHz/64fs Download DSD Multichannel 2. VA - Motown Greatest Hits (2019) [FLAC] [DJ] , extratorrent, extratorrents, extratorrent. 27 Jan: 358. Request for ceee43 Stevie Wonder - Part-Time Lover (Vinyl 12″ Single - 1985) https://mega. Various Artists Motown Greatest Hits (3CD) Released: 2019 Encoded: 320 Kbps MP3 2019 marks the 60th year of MOTOWN, widely regarded as the greatest, most successful and best loved record label in music and to commemorate this landmark anniversary Motown will be issuing a brand new Greatest Hits compilation featuring 60 tracks from across their enormously influential and remarkable history. 5/5 Votes: 422 Format: MP3 FLAC MOD AAC DXD MP3 AIFF AHX MP1. 04:15 You Are My Lady. Hello! Please login. "Fate knows the answer that you'd like to know…might as well face him in style…" 1981's To Love Again was an interesting half-new, half-compilation album that traced the musical partnership between Diana Ross and writer-produced Michael Masser. FILE "Various\MOTOWN - The Complete NO. Eleanor Rigby - The Four Tops 3. ZIP, RAR archives download free. Buy 'Pinky Ring by Ne-Yo' MP3 download online from 7digital United States - Over 30 million high quality tracks in our store. How to Listen / Download The Motown Years 50: - Scroll down to comments. ag, download, bittorrent, torrent, torrents. Albums related to A Loss For Words - Motown Classics. Shop Around - The Miracles 5. Clark became known to Northern Soul fans for hit songs such as 1965's "Do Right Baby Do Right" (by Berry Gordy) and 1966's "Love's Gone Bad" (Holland-Dozier-Holland). 1]PS3 Rip | ISO | DST 64 2. Are Ya Gonna Eat That? 7. "Freak Flag". VA - Motown Greatest Hits (2019) [FLAC] [DJ] , extratorrent, extratorrents, extratorrent. Walk In The Night: The Motown 70s Studio Albums by Jr. 02 - The Contours - Do You Love Me. Diana Ross - All The Great Hits [Motown 1965-1981, 320 kbps]. Torsion - Hardware Sex And Misunderstanding album mp3 flac Rock. 1kHz Audio Channels: 2. Tracklist: Disc 1: 1 End Of The RoadBoyz II Men 2 Isn't She LovelyStevie Wonder 3 HelloLionel Richie 4 Where Is The LoveRita Wright 5 How Sweet It Is (To Be Loved By You)Marvin Gaye 6 I Second That EmotionSmokey Robinson & The Miracles 7 Remember MeDiana Ross. In an inspired set taking in smoldering ballads, introspective singer-songwriter-style material, and vibrant dance floor numbers, her versatility is evident throughout. Hitsville: The Making Of Motown (Original Motion Picture Soundtrack / Deluxe) (2019, 24 bit Hi-Res Web Flac) - Release Date: 2019 Audio Codec: Flac Rip Type: tracks Bitrate: lossless Audio Channels: 2. Play Me Some Motown (Radio Edit) plus high-quality download in MP3, FLAC and more. The Classic Of Diana Ross flac download Diana Ross & The Supremes - Diana Ross & The Supremes flac download Diana Ross - Diana's Duets flac download Various - Love Motown flac download. His pedigree is gloriously-evident as he opens with. Long and Winding. Album's title: The Tamla - Motown Sound! Label: Tamla Motown ‎– 5C 048-90836, Tamla Motown ‎– STML 11055 Type: Vinyl, LP, Compilation, Reissue, Stereo Country: Netherlands Date of released: Category: Funk / Soul Style: Soul ZIP Size MP3: 1689 mb ZIP Size FLAC: 1860 mb Rating: 4. VA - Motown 50° Greatest Hits Collection - Kings Of Soul (2009) FLAC VA - Motown 50° Greatest Hits Collection - Let's Dance (2009) FLAC Marvin Gaye - The Best Of Marvin Gaye Volume 2: The 70's (2000) FLAC. Motown Greatest Hits (3CD Box Set) (2019) FLAC Genres: FLAC 16 bit / Soul / Funk / RnB / Collection Best Hits 1-11-2019, 03:10 593 aleXs All music Various Motown. Mary Wells - Bye Bye Baby 2. All music Various Motown. Motown Album Discography, Part 1 (1961-1981) by David Edwards and Mike Callahan Last update: August 7, 2012 The first two dozen albums (600-624), have been originally issued — with only a few exceptions — with either the car logo or Motown rectangular logo (see below) on the front of the record jacket. Related Torrents; VA - The Complete Sun Singles - Volume 1 (1994) [FLAC] 841. Long and Winding. Release information about Michael_Mcdonald-Motown_Two-CD-FLAC-2004-FLACME. Download Diana Ross - Motown's Greatest Hits (1992)@flac torrent for free, HD Full Movie Streaming Also Available in Limetorrents. 1]PS3 Rip | ISO | DST 64 2. The 3CD version of the album features legendary Motown artists including The Supremes, Marvin Gaye, Temptations, Four Tops, Stevie Wonder, Diana Ross, The Jackson 5 and Lionel Richie. How to Listen / Download The Motown Years 50: - Scroll down to comments. 15 submissions pending; Share. Singer: Commodores / Lionel Richie Title: Definitive Motown Collection MP3 RAR archive size: 1868 mb FLAC RAR archive size: 1432 mb Rating: 4. Music Search. ZIP, RAR archives download free. The Marvelletes - Please Mr Postman - The Marvelettes 4. The album also features material from. Written and produced by Motown's main production team Holland-Dozier-Holland, the song was the group's first Motown single and their first pop Top 20 hit, making it to number eleven on the Billboard Hot 100 in the fall of 1964. Motown - Best of Motown album mp3 flac Soul. Album The Complete Motown Albums Umělec Rick James Ke stažení ve formátu MP3 a FLAC Obsahuje hity ♫ 17 ♫ Glow ♫ Unity Ukázky zdarma k poslechu. Mary Wells - I'm So Sorry 5. View full schedule. 84 GB (ISO) + 3. Album's title: The Tamla - Motown Sound! Label: Tamla Motown ‎– 5C 048-90836, Tamla Motown ‎– STML 11055 Type: Vinyl, LP, Compilation, Reissue, Stereo Country: Netherlands Date of released: Category: Funk / Soul Style: Soul ZIP Size MP3: 1689 mb ZIP Size FLAC: 1860 mb Rating: 4. Joint and a Shot 4. Each 11-minute episode incorporates a plotline inspired by the themes and characters of a classic Motown song, and an original version of that song covered. 1 kHz (Tracks) Artist: Various Artists Title: Motown Meets The Beatles Released: 1995 Style: Soul, Funk, R&B RAR Size: 380 Mb Tracklist: 1. The Elgins - The Motown Anthology (2007) FLAC Dionne Warwick - Collection 1963-1977 (23 Albums Mini LP CD Remastered) (2013) FLAC La Soul C'etait Mieux Avant (5CD) (2017) FLAC. "Fate knows the answer that you'd like to know…might as well face him in style…" 1981's To Love Again was an interesting half-new, half-compilation album that traced the musical partnership between Diana Ross and writer-produced Michael Masser. The Complete Motown Singles. 06MB ) Motown Singles - CD16-27 - Marvin Gaye - When I'm Alone I Cry. 1's Disc3\18 - Ain't No Mountain High Enough. 1989 downloads at 21 mb/s. 36 MB Blue-eyed soul crooner Michael McDonald gave his career a much-needed shot in the arm with 2003's Motown, a commercially well-received collection that matched the one-time Doobie Brother and '80s solo star's rich vocals. Alegria - Mas Que Nada album mp3 flac Electronic. The original Motown Chartbusters (LPs) were massive in the UK and deserve far better sound. 67 MiB, ULed by drremmiz: 1: 0: Video (Music videos). Albums related to A Loss For Words - Motown Classics. The original motion picture soundtrack to the Showtime documentary film “Hitsville: The Making of Motown” features remastered audio. Total Size: 3. How to Listen / Download The Motown Years 50: - Scroll down to comments. 🎧 Motown Jazz Playlist 🎧 00:00 Let's Stay Together. Mary Wells - I'm So Sorry 5. By the end of 1965, Berry Gordy was scouting to get the group signed to his fabled Motown Records label. Mix - [HQ-FLAC] Michael Jackson - Billie Jean YouTube. Listen to this and millions more tracks online. 14:25 Ain't No Woman (Like The One I Got) 20:40 Inner City Blues. Various Artists - Now That's What I Call Motown! flac album. Where Is The Love? 10. The Complete Motown Recordings 1964-1965. com - Available in 192 kHz / 24-bit AIFF, FLAC high resolution…. The Supremes - Where Did Our Love Go (02:31) / 2019, 24bit WEB, Various Artists, KaRaMusic. 1kHz] 3 CDS (2007) FLAC R & B 11-09-2019, 07:47 Michael Jackson - Hello World - The Motown Solo Collection [Qobuz CD 16bits/44. 1's (10CD Box Set) - 2008 (FLAC) Publié par Bentleyfunk à. A - Motown Classics - Gold (2005) XLD Rip | 2xCD | FLAC Image + Cue + Log | Full Scans Included Total Size: 1. 22 GB (FLAC Stereo) | 3% RAR Recovery Label: Motown | USA | Cat#: B0001194-36 | Genre: Soul, R&B. Direct download via HTTP available as well. 320KB/S MP3. Pink Floyd - Another Brick In. 1's Disc3\19 - I'll Be There. The Marvelletes - Please Mr Postman - The Marvelettes 4. # B0015820-02 | Released: 2011-09-20. February 2011, 15:48 Michael Jackson & Jackson 5 / The Motown Years CD1. The Complete Motown Recordings 1964-1965. Download new club compilation Motown Greatest Hits (2019) MP3 from Clubmusicdownload. Experience the excellence of Losslessdl. Losslessdl - Download High Definition Music Free. Various - Tamla Motown 45 - latest mp3, flac album version. MOTOWN THE MUSICAL. How to Listen / Download The Complete Motown Singles Vol. Cat# Artist Title (Format) Label Cat#. One of the most dominating forces in the history of popular music, the Motown imprint was more than a label, it was a juggernaut of soul music, a machine so finely honed and working with such efficiency that it wasn’t uncommon for several chart topping hits to be recorded in one session. The 3CD version of the album features legendary Motown artists including The Supremes, Marvin Gaye, Temptations, Four Tops, Stevie Wonder, Diana Ross, The Jackson 5 and Lionel Richie. Hitsville: The Making Of Motown (Original Motion Picture Soundtrack / Deluxe) (2019, 24 bit Hi-Res Web Flac) - Release Date: 2019 Audio Codec: Flac Rip Type: tracks Bitrate: lossless Audio Channels: 2. 1 GB | Covers included | 05:53:15 Genre: Soul, R&B, Funk, Disco | Label: Spectrum Music / Universal 101 Motown Anthems Various Artists INCLUDING The Jackson 5, The Supremes, Martha & the Vandellas, Marvin Gaye, Diana Ross, The Isley Brothers, Smokey Robinson & the Miracles, The Four Tops, Stevie Wonder, The. FREE Shipping on orders over $25. The album was named after the age of the singer during its production. Hitsville USA: The Motown Singles Collection 1959-1971 is a 1992 four-CD collection of Motown hits, during Motown's golden age when the songs were recorded at its original Detroit studio. Year Of Release: 2019 Genre: R&B Format: Flac, Tracks Bitrate: lossless, 24bit Sample Rate: 96000Hz Audio Channels: 2. 22 GB (FLAC Stereo) | 3% RAR Recovery Label: Motown | USA | Cat#: B0001194-36 | Genre: Soul, R&B. The website contains a selection of high-quality archive. 5 MB: 0: 0: unknown: Hitsville USA-The Motown Singles Collection -VA 1992-2000 FLAC Tracks Lossless: Today: 3. Ships from and sold by Amazon. Gladys Knight and the Pips join Motown records. Preview, buy and download high-quality music downloads of Lost Without You: Motown Lost & Found by Four Tops from 7digital United Kingdom - We have over 30 million high quality tracks in our store. All materials on the site are provided for informational purposes only. 24 GB 2019 marks the 60th year of MOTOWN, widely regarded as the greatest, most successful and best loved record label in music and to commemorate this landmark anniversary Motown will be issuing a brand new Greatest Hits compilation. HTTP download also available at fast speeds. The 3CD version of the album features legendary Motown artists including The Supremes, Marvin Gaye, Temptations, Four Tops, Stevie Wonder, Diana Ross, The Jackson 5 and Lionel Richie. First Preview 3/11/2013 Opening Date 4/14/2013 Closing Date 1/18/2015 Cast Creative Production Photos Videos Reviews Buy Tickets All Grosses. flac 02 - Got To Be There (Single Version). WEB Label: Motown Records. Great collection of 60s Tamla Motown - but not sure what Spectrum have done (or not done)? I would question the source material used for these CDs and the (very) soft levels are all over the place which greatly reduces the listening pleasure. mp3 Derecho & Pereza: "Una prueba de que no existe la nada para los sueños caídos. Motown Greatest Hits Year Of Release: 2019 Genre: Soul Format: Flac, Tracks +. Released May 17, 2019 A Motown Records Release; This Compilation ℗ 2019 UMG Recordings, Inc. ERYKAH BADU - Mama's Gun [2000] Motown / FLAC (tracks+. Performer: Various Artists Title: Now That's What I Call Motown! Style: Motown,Pop-Soul,Soul,Urban,Funk Duration: 01:18:08 Relesed: January 13, 2009 Rating: 4. Everything Is Good About You (03:28) 04. We Can Work It Out - Stevie Wonder 4. Year Of Release: 2019 Format: Flac, Tracks Bitrate: lossless, 24bit Sample Rate: 48000Hz Audio Channels: 2. My World Is Empty Without You (03:06) 02. The label and its various subsidiaries were beginning to gel, beginning to polish what would become immediately identifiable as the Motown. 2: 1962 - Various Artists on AllMusic - 2005 - Picking up where the first volume of Hip-O…. 🎧 Motown Jazz Playlist 🎧 00:00 Let's Stay Together. Download Motown People by Mike Rosales at Juno Download. Walker The All Stars”) which has only ever been released in its entirety in UK and Europe, all six making their debut on CD worldwide with this 2019 SoulMusic Records’ release. Download MP3, WAV, FLAC. The Classic Of Diana Ross flac download Diana Ross & The Supremes - Diana Ross & The Supremes flac download Diana Ross - Diana's Duets flac download Various - Love Motown flac download. (My Town)," an ode to the city that became Motown's new hometown in 1972. The Supremes - For Once In My Life (02:53) 02. Preview, buy and download high-quality music downloads of Hello World - The Motown Solo Collection by Michael Jackson from 7digital United Kingdom - We have over 30 million high quality tracks in our store. The Complete MOTOWN SINGLES [FLAC] 14 BOX SET -69 CD'S Various-The Complete Motown Singles | Vol. Motown Junkies presents "Discovering Motown" a Motown radio show. Album The Complete Motown Singles - Vol. Buy Walking Through Motown EP by Subradeon on Bleep. Various - Największe Hity Przebojów Kinowych FLAC album ZIP archive. Brogan's here in the afternoon to play you the best of Soul and Motown. After reading, remove the material and purchase licensed version Music lossless for lovers of good sound. 100 Greatest Breakfast Songs (2019) Flac. ALAC Downloads ALAC 176kHz/24bit Download ALAC 192kHz/24bit Download ALAC 44kHz/24bit Download DSD Downloads DSD (Double Rate) 5. My World Is Empty Without You (03:06) 02. Purchasable with gift card Buy Digital Track $1 USD or more Their debut record single. Motown Brown by Shayk, released 31 July 2016 Includes high-quality download in MP3, FLAC and more. The label and its various subsidiaries were beginning to gel, beginning to polish what would become immediately identifiable as the Motown. 24 GB | Genre: Soul Tracks: 19 | Source: Scene. # DOWNLOAD LINK: megafile3. VA - The Complete Motown Singles - Vol. 74MB; The Complete Motown Singles - [ANT] 13. Motown Greatest Hits (3CD Box Set) (2019) FLAC Genres: FLAC 16 bit / Soul / Funk / RnB / Collection Best Hits 1-11-2019, 03:10 593 aleXs All music Various Motown. 1 GB | Covers included | 05:53:15 Genre: Soul, R&B, Funk, Disco | Label: Spectrum Music / Universal 101 Motown Anthems Various Artists INCLUDING The Jackson 5, The Supremes, Martha & the Vandellas, Marvin Gaye, Diana Ross, The Isley Brothers, Smokey Robinson & the Miracles, The Four Tops, Stevie Wonder, The. Each 11-minute episode incorporates a plotline inspired by the themes and characters of a classic Motown song, and an original version of that song covered. Let's Stay Together 2. Gross $116,498,633. and incorporated as Motown Record Corporation in Detroit, Michigan, United States, on April 14, 1960. ag, download, bittorrent, torrent, torrents. Artist: Various Artists Title Of Album: The Complete Motown Singles - Vol 12B: 1972 Year Of Release: 2013 Label (Catalog#): Hip-O Select [B0019213-02] Country: International Genre: Soul, Funk, Rhythm & Blues, Soul Rock Quality: FLAC (*tracks,cue,log) Bitrate: Lossless Time: 5:37:07 Full Size: 2. Walker The All Stars”) which has only ever been released in its entirety in UK and Europe, all six making their debut on CD worldwide with this 2019 SoulMusic Records’ release. Artist: Various ArtistsAlbum: Motown Unreleased 1969 Label: UNI - MOTOWNReleased: 2019Genre: R&BCountry: WorldDuration: 03:15:06Tracklisting:01. Mix - [HQ-FLAC] Michael Jackson - Billie Jean YouTube. Artist: Various Album's title: The Tamla - Motown Sound! Label: Tamla Motown ‎- 5C 048-90836, Tamla Motown ‎- STML 11055 Type: Vinyl, LP, Compilation, Reissue, Stereo Country: Netherlands Date of released: Category: Funk / Soul Style: Soul ZIP Size MP3: 1689 mb ZIP Size FLAC: 1860 mb Rating: 4. 67 MiB, ULed by drremmiz: 1: 0: Video (Music videos). 24 GB | Genre: Soul Tracks: 19 | Source: Scene. 0 Total Size: 1. VA - Motown The Musical Originals - 40 Classic Songs That Inspired The Broadway Show! (2015) FLAC/MP3; VA - The Motown Story (2006) VA - Motown The Musical: 40 Classic Songs That Inspired the Musical! (2016) VA - Motown Classics Gold (2005) VA - Hitsville The Making Of Motown (2CD, 2019) Various Artists - Motown Greatest Hits (2019). Christine Elizabeth Clark (born February 1, 1946), better known as Chris Clark, is an American soul, jazz, and blues singer, who recorded for Motown Records. Baby I Need Your Loving" is a 1964 hit single recorded by the Four Tops for the Motown label. Download Motown Anthems [4CD Box Set] (2012) FLAC or any other file from Music category. Exact Audio Copy V1. VA - 101 Motown Anthems (2017) EAC Rip | FLAC (tracks & cue & log) -> 2. com - Available in 96 kHz / 24-bit AIFF, FLAC high resolution audio formats,. Find album reviews, stream songs, credits and award information for The Complete Motown Singles, Vol. 0) XLD extraction logfile from 2012-04-18 14:47:28 +0000 Various Artists / Motown 50 Greatest Hits Collection (Vol. 1's Disc3\18 - Ain't No Mountain High Enough. flac 05 - You've Lost That Lovin' Feelin'. 1kHz Audio Channels: 2. GD 58 CD 1 01 - Isn't She Lovely. Free To Be Me". Download MP3, WAV, FLAC. Shop Around - The Miracles 5. Motown - Best of Motown album mp3 flac Soul. Michael Jackson - Hello World - The Motown Solo Collection [Qobuz CD 16bits/44. Budgey Mel 9. VA - Motown 50° Greatest Hits Collection - Kings Of Soul (2009) FLAC VA - Motown 50° Greatest Hits Collection - Let's Dance (2009) FLAC Marvin Gaye - The Best Of Marvin Gaye Volume 2: The 70's (2000) FLAC. High quality Michael Jackson MP3 downloads from 7digital United States. Highlighting the founding years of Motown, the album celebrates icons such as The Temptations, Marvin Gaye, Smokey Robinson & the Miracles, The Supremes, Martha Reeves & The Vandellas, Stevie Wonder, and more. Motown Singles - CD18-03 - Dorsey Burnette - Little Acorn. Hitsville: The Making Of Motown (Original Motion Picture Soundtrack / Deluxe) Available in Audiophile 192kHz/24bit Title: Hitsville: The Making Of Motown (Original Motion Picture Soundtrack / Deluxe). 14:25 Ain't No Woman (Like The One I Got) 20:40 Inner City Blues. Mike Clark follows up the 'Detroit Beatdown' collection with this funk dripped four tracker. Move On Up 5. Diana Ross - All The Great Hits [Motown 1965-1981, 320 kbps]. - Duration: 10:50. WEB Label: Motown Records. The PBS version? Will this "exclusive" version be available through Hip-O Select? I don't have television! I bought a PBS box through Rhino Handmade, the worthwhile three-disc set, ROCK RHYTHM & DOO WOP VOLUME 2, which was a good collection of tracks I didn't have on CD; the first volume was more a hodge-podge of the obvious and, for most music collectrs, redundant. 21 shares the folk and Motown soul influences of her 2008 debut album 19, but was further inspired by the American country and Southern blues music to which she had been exposed during her 2008-09 North American tour An Evening with Adele. 24 GB 2019 marks the 60th year of MOTOWN, widely regarded as the greatest, most successful and best loved record label in music and to commemorate this landmark anniversary Motown will be issuing a brand new Greatest Hits compilation. The Supremes - For Once In My Life (02:53) 02. Ships from and sold by Amazon. Various Artists - Hitsville: The Making Of Motown (Original Motion Picture Soundtrack) (2019) By admin flac-music 2019 , Soundtrack 0 Comments Genre : Soundtrack. Barrett Strong - Money (That's What I Want) - Barrett Strong 2. The Four Tops x Damian Marley - Standing In the Shadows All Night Blended by Maitre D. ARTIST: VA ALBUM / TITLE: Motown Greatest Hits (3CD) RELEASE YEAR / DATE: 2019 COUNTRY: International STYLE: Funk, Soul, Rhythm n Blues LABEL: Universal Music DURATION: 03:37:13 FILE FORMAT: FLAC SIZE :1,4 GB TRACKLIST : Show/hide textDISC: 11. The Complete MOTOWN SINGLES [FLAC] 14 BOX SET -69 CD'S Various-The Complete Motown Singles | Vol. It was his first single since his exit from his long-term record label Motown earlier in the year, following the release of the In Our Lifetime (1981) album the previous year. Regular mp3s are dominating the market and it's pretty hard to find music in Lossless (FLAC) format. The 3CD version of the album features legendary Motown artists including The Supremes, Marvin Gaye, Temptations, Four Tops, Stevie Wonder, Diana Ross, The Jackson 5 and Lionel Richie. 1 > 1-bit/2. Download Motown 50 - 3 Disc Set (EAC)(flac)(TLS Music) - Soulman torrent or any other torrent from Lossless category. 1's Disc3\18 - Ain't No Mountain High Enough. 84 GB (ISO) + 3. Download Motown Legends - Volume 3 - 1995 [FLAC] [RLG] torrent or any other torrent from Lossless category. Baby, It's You 13. After reading, remove the material and purchase licensed version Music lossless for lovers of good sound. ERYKAH BADU - Mama's Gun [2000] Motown / FLAC (tracks+. Motown Junkies presents "Discovering Motown" a Motown radio show. Release Name: Michael_Mcdonald-Motown_Two-CD-FLAC-2004-FLACME Artist: Michael McDonald Album: Motown Two Genre: Rock Year: 2004 Tracks: 14 Duration: 00:49:53 Size: 361. The Complete Motown Recordings 1964-1965. During this time, the group recorded more hit singles, including "I Feel a Song (In My Heart)", "Part-Time Love", "Love Finds Its Own Way" and the live recording, "The Way We Were/Try to Remember". 2: 1962 - Various Artists on AllMusic - 2005 - Picking up where the first volume of Hip-O…. VA - Motown Greatest Hits (2019) [FLAC] [DJ] , extratorrent, extratorrents, extratorrent. Artist: VA Title: Motown: The Early Years 1959-62 Year Of Release: 2020 Label: Acrobat Records Genre: Soul, Rhythm and Blues, Pop Quality: FLAC (tracks) Total Time: 03:32:40 Total Size: 847 mb. 22 GB (FLAC Stereo) | 3% RAR Recovery Label: Motown | USA | Cat#: B0001194-36 | Genre: Soul, R&B. Highlighting the founding years of Motown, the album celebrates icons such as The Temptations, Marvin Gaye, Smokey Robinson & the Miracles, The Supremes, Martha Reeves & The Vandellas, Stevie Wonder, and more. Download Diana Ross - Motown's Greatest Hits (1992)@flac torrent for free, HD Full Movie Streaming Also Available in Limetorrents. This superb box set spanning the years 1970-1976 features five original Motown albums and one album (1974's "Jr. flac" WAVE TRACK 18 AUDIO TITLE "Ain't No Mountain High Enough" PERFORMER "Diana Ross" INDEX 01 00:00:00 FILE "Various\MOTOWN - The Complete NO. VA - Motown Greatest Hits (2019) [FLAC] [DJ] , extratorrent, extratorrents, extratorrent. 14:25 Ain't No Woman (Like The One I Got) 20:40 Inner City Blues. Diana Ross & The Supremes - For Once In My Life 02:5302. 1kHz] 3 CDS (2008) FLAC R & B 11-09-2019, 07:40 The Stephen Kummer Trio with The Chris McDonald Orchestra - Christmas in the City (2005) FLAC (image +. HITSVILLE USA THE MOTOWN SINGLES COLLECTION 1959 - 1971 [Box Set 4 CD] Artistes: Compilation Format: FLAC Durée: 05:03:51 Label: Motown Date de sortie: 1992 Genre: Soul Hitsville USA, The Motown Singles Collection 1959-1971 De 1959, année de sa création, à 1971, date clé dans l'histoire du label marquée par son déménagement de Detroit à Los Angeles (un autre coffret, Hitsville USA. 1's (10CD Box Set) - 2008 (FLAC) Publié par Bentleyfunk à. 1]PS3 Rip | ISO | DST 64 2. 76MB ) Motown Singles - CD61-01- Messengers - That's The Way A Woman Is. Everything Is Good About You (03:28) 04. 1 kHz (Tracks) Artist: Various Artists. Listen to more stations from Magic. HTTP download also available at fast speeds. Message To Michael (02:51) 03. 1's Disc3\19 - I'll Be There. The Complete Motown Singles, Vol. 03 - The Velvelettes - He Was Really Saying Somethin'. VA - The Complete Motown Singles - Vol. 0 Total Size: 1. Explore releases from the The Complete Motown Singles label. 1kHz] 3 CDS (2008) FLAC. Motown ‎- B0012208-02 Format: 10 × CD , Compilation. Year Of Release: 2019 Genre: R&B Format: Flac, Tracks Bitrate: lossless, 24bit Sample Rate: 96000Hz Audio Channels: 2. The Classic Of Diana Ross flac download Diana Ross & The Supremes - Diana Ross & The Supremes flac download Diana Ross - Diana's Duets flac download Various - Love Motown flac download. Michael McDonald - Motown (2003) PS3 Rip | SACD ISO | DST 64 2. Torrential Times 3. 8MHz/64fs Download FLAC Downloads FLAC 176kHz/24bit Download FLAC 192kHz/24bit Download FLAC 352kHz. Title: The Complete Motown Recordings 1964-1965 ; Artist: Dorsey Burnette; Genre: Pop, Box Sets; Label: Motown ; Release Date: 2014 ; Notes: Tracks 7, 8, 10 & 11 are 48khz/24bit sources mastered to 96khz/24bit files. Various - Tamla Motown 45 - latest mp3, flac album version. 8224 MHz | 56:15 minutes | Scans included | 4,04 GBor FLAC 2. 0) XLD extraction logfile from 2012-04-18 14:47:28 +0000 Various Artists / Motown 50 Greatest Hits Collection (Vol. Walker The All Stars") which has only ever been released in its entirety in UK and Europe, all six making their debut on CD worldwide with this 2019 SoulMusic Records' release. 48MB The Complete Motown Singles Volume 03 (1963) Disc. Quality: FLAC 16 bit / 44. 02 - The Contours - Do You Love Me. Eleanor Rigby - The Four Tops 3. back to a time, where classic Soul and R&B was on the radio. Various Artists - Motown Love Released: 2009 Genre: R&B, Soul Bitrate: MP3 320 KBPS. Motown by Smooth Jazz Sax Instrumentals, released 24 February 2010 1. Martha & The Vandells x Childish Gambino x Nick Bike - Redbone In The Street (Maitre D's Stolen Bike Edit) 3. Another Kind Of Christmas is the first Christmas album by soul vocalist Shaffer Chimere Smith, who is better known under the mononym Ne-Yo.